AK影讯
精彩分享~

[黄金花][WEB-MP4/1.85GB][国粤双语中字][1080P][木有水印][杜比5.1音轨][DYGC]香港盘盘云*超极品BT磁力链资料6

–>

◎电影译名 TomorrowisAnotherDay

◎电影片名 黄金花

◎年  代 2017

◎产  天 中国年夜陆/喷鼻港

◎电影类型 剧情

◎语  行 汉语一般话/粤语

◎上映日期 2017-11-13(喷鼻港亞洲電影節)/2018-04-12(喷鼻港)/2018-04-28(中国年夜陆)

◎IMDb评分  6.0/10 from 43 users

◎IMDb链接  http://www.imdb.com/title/tt7875604/

◎豆瓣评分 6.5/10 from 1,279 users

◎豆瓣链接 https://movie.douban.com/subject/26868408/

◎片  少 91分钟

◎导  演 陈年夜利 Tai-lee Chan

◎主  演 毛舜筠 Teresa Mo

      凌文龙

      吕良伟 Ray Lui

      刘好君 Mei-Guan Lau

      冼色丽 Seli Xian

      余安安 On-on Yu

      道擅行 Hedwig Tam

      郑欣宜 Joyce Cheng

      江欣燕 Elvina Kong

      林建明 Meg Lam

      林兆霞 June Lam

◎影片简介

  黄金花(毛舜筠 饰)取老公(吕良伟 饰) 开力赐顾帮衬得了自闭症的女子(凌文龙 饰) 20 年,辛劳而反复的糊口让丈妇背叛了本以岌岌可危的家庭。面临残缺散乱的糊口,黄金花发生了没有计结果抨击统统的念法,灵活纯真的女子成为她规划的枢纽面。但是女子并不是对母亲的所做所为出有感知,他缄默的以本人的方法挽回步进邪路母亲……面临女子深厚暖和的爱,黄金花豁然开朗,但等候她的是光亮绚烂的将来又或是无边痛苦的天堂?

◎获奖状况

  第37届喷鼻港影戏金像奖  (2018)

  最好男配角(提名) 凌文龙

  最好女配角 毛舜筠

  最好新演员 凌文龙

  新晋导演(提名) 陈年夜利

  第20届上海国际影戏节  (2017)

  亚洲新人奖 最好男配角(提名) 凌文龙

  第12届亚洲影戏年夜奖  (2018)

  最好新演员(提名) 凌文龙

General

Complete name               : F:\[DYGC.ORG]黄金花.Tomorrow.is.Another.Day.2017.1080P.WEB-DL.X264.DD5.1.Cantonese.CHS-DYGC\[DYGC.ORG]黄金花.Tomorrow.is.Another.Day.2017.1080P.WEB-

DL.X264.DD5.1.Cantonese.CHS-DYGC.mp4

Format                      : MPEG-4

Format profile              : Base Media

Codec ID                    : isom (isom/iso2/avc1/mp41)

File size                   : 1.85 GiB

Duration                    : 1 h 30 min

Overall bit rate            : 2 946 kb/s

Writing application         : Lavf58.13.100

Video

ID                          : 1

Format                      : AVC

Format/Info                 : Advanced Video Codec

Format profile              : [email protected]

Format settings             : CABAC / 3 Ref Frames

Format settings, CABAC      : Yes

Format settings, ReFrames   : 3 frames

Codec ID                    : avc1

Codec ID/Info               : Advanced Video Coding

Duration                    : 1 h 30 min

Bit rate                    : 2 429 kb/s

Width                       : 1 920 pixels

Height                      : 1 008 pixels

Display aspect ratio        : 1.905

Frame rate mode             : Variable

Frame rate                  : 24.000 FPS

Minimum frame rate          : 23.622 FPS

Maximum frame rate          : 24.793 FPS

Color space                 : YUV

Chroma subsampling          : 4:2:0

Bit depth                   : 8 bits

Scan type                   : Progressive

Bits/(Pixel*Frame)          : 0.052

Stream size                 : 1.53 GiB (82%)

Color range                 : Limited

Color primaries             : BT.709

Transfer characteristics    : BT.709

Matrix coefficients         : BT.709

Audio #1

ID                          : 2

Format                      : E-AC-3

Format/Info                 : Enhanced Audio Coding 3

Codec ID                    : ec-3

Duration                    : 1 h 30 min

Bit rate mode               : Constant

Bit rate                    : 256 kb/s

Channel(s)                  : 6 channels

Channel positions           : Front: L C R, Side: L R, LFE

Sampling rate               : 48.0 kHz

Frame rate                  : 187.500 FPS (256 SPF)

Bit depth                   : 16 bits

Compression mode            : Lossy

Stream size                 : 165 MiB (9%)

Title                       : [DYGC.ORG]国语DD5.1

Service kind                : Complete Main

Default                     : No

Alternate group             : 1

Audio #2

ID                          : 3

Format                      : E-AC-3

Format/Info                 : Enhanced Audio Coding 3

Codec ID                    : ec-3

Duration                    : 1 h 30 min

Bit rate mode               : Constant

Bit rate                    : 256 kb/s

Channel(s)                  : 6 channels

Channel positions           : Front: L C R, Side: L R, LFE

Sampling rate               : 48.0 kHz

Frame rate                  : 187.500 FPS (256 SPF)

Bit depth                   : 16 bits

Compression mode            : Lossy

Stream size                 : 165 MiB (9%)

Title                       : [DYGC.ORG]粤语DD5.1

Service kind                : Complete Main

Default                     : Yes

Alternate group             : 1

杜比5.1音轨齐网尾收


默许为国语




1 个附件
卖价
巨细
下载
工夫


[DYGC.ORG]黄金花.Tomorrow.is.Another.Day.2017.1080P.WEB-DL.X264.DD5.1.Cantonese.CHS-DYGC.torrent

0 金币
20.72K
308 次
20分钟前


#2楼

立即免费下载

赞(0)
未经允许不得转载:i酷影讯 » [黄金花][WEB-MP4/1.85GB][国粤双语中字][1080P][木有水印][杜比5.1音轨][DYGC]香港盘盘云*超极品BT磁力链资料6
GIF精品动图推荐


*不同于一般电影资源站点.akoofs AK影视发布每一部都是精选.宁缺毋滥.第一时间更新最新最完美的资讯
*本站不发布任何ek2k电驴链接.BT种子磁力链等,百度云网盘离线迅雷下载等通通木有
*本站所有资源文章由源码程序自动收集发布生成,并非代表本站观点,本站不承担任何法律责任
*如侵犯了您的权益,请邮件@通知,并提供权利产权证明,核实后会第一时间删除!谢谢您的关注
*本站挂的各种广告为广告商赞助,请尽量少点击,不代表本站观点,本站也不负任何法律责任,其真伪性自行辨别!
*喜欢本站 请按"Ctrl + D" 收藏我们哦~ 谢谢~【www.akoofs.com】AK影视 每日精彩分享