AK影讯
精彩分享~

[高码4K][唐人街探案 2][MKV][9.49G][国语/中英双字][木有水印][CYW]超极品BT磁力链资料6

–>

◎电影译名 唐探2

◎电影片名 唐人街探案2

◎年  代 2018

◎产  天 中国年夜陆

◎电影类型 笑剧/行动/立功/悬疑

◎语  行 汉语一般话

◎上映日期 2018-02-16(中国年夜陆)

◎豆瓣评分 6.7/10 from 408,843 users

◎豆瓣链接 https://movie.douban.com/subject/26698897/

◎片  少 121分钟

◎导  演 陈思诚 Sicheng Chen

◎主  演 王宝强 Baoqiang Wang

      刘昊然 Haoran Liu

      肖央 Yang Xiao

      刘启羽 Natasha Liu Bordizzo

      尚语贤 Yuxian Shang

      王迅 Xun Wang

      妻妇木聪 Satoshi Tsumabuki

      迈克我·皮特 Michael Pitt

      黑灵 Ling Bai

      元华 Wah Yuen

      曾江 Kenneth Tsang

      王成思 Chengsi Wang

      杨金赐 Jinci Yang

      范湉湉 Tiantian Fan

      佟丽娅 Liya Tong

      陈思诚 Sicheng Chen

◎影片简介

  唐仁(王宝强 饰)为巨额奖金棍骗秦风(刘昊然 饰)到纽约参与天下名侦察年夜赛,但是跟着战天下列国侦察们哭笑不得的比赛,两人却发明了躲藏正在此次应战背后的更年夜机密…

General

Unique ID                      : 264700097130399077019474831568367566862 (0xC7236263C0016E7C841F678B123CC00E)

Complete name                  : D:\影戏\CYW.Detective.Chinatown.Ⅱ.2018.4K.WEB-DL.VP9.Opus-SXG·单喜哥\CYW.Detective.Chinatown.Ⅱ.2018.4K.WEB-DL.VP9.Opus-SXG·单喜哥.mkv

Format                         : Matroska

Format version                 : Version 4 / Version 2

File size                      : 9.49 GiB

Duration                       : 2 h 0 min

Overall bit rate               : 11.3 Mb/s

Encoded date                   : UTC 2018-08-25 07:33:46

Writing application            : mkvmerge v25.0.0 ('Prog Noir') 64-bit

Writing library                : libebml v1.3.6 + libmatroska v1.4.9

Video

ID                             : 1

Format                         : VP9

Codec ID                       : V_VP9

Duration                       : 2 h 0 min

Bit rate                       : 11.1 Mb/s

Width                          : 3 840 pixels

Height                         : 1 600 pixels

Display aspect ratio           : 2.40:1

Frame rate mode                : Constant

Frame rate                     : 24.000 FPS

Bits/(Pixel*Frame)             : 0.076

Stream size                    : 9.40 GiB (99%)

Title                          : CYW-SXG·单喜哥

Language                       : Chinese

Default                        : Yes

Forced                         : No

Audio

ID                             : 2

Format                         : Opus

Codec ID                       : A_OPUS

Duration                       : 2 h 0 min

Bit rate                       : 113 kb/s

Channel(s)                     : 2 channels

Channel positions              : Front: L R

Sampling rate                  : 48.0 kHz

Frame rate                     : 50.000 FPS (960 SPF)

Compression mode               : Lossy

Stream size                    : 97.7 MiB (1%)

Title                          : CYW-SXG·单喜哥

Language                       : Chinese

Default                        : Yes

Forced                         : No

转自菜牙影戏网SXG·单喜哥

1 个附件
卖价
巨细
下载
工夫


CYW.Detective.Chinatown.Ⅱ.2018.4K.WEB-DL.VP9.Opus-SXG·单喜哥.torrent

0 金币
100.26K
238 次
13分钟前


#2楼

立即免费下载

赞(0)
未经允许不得转载:i酷影讯 » [高码4K][唐人街探案 2][MKV][9.49G][国语/中英双字][木有水印][CYW]超极品BT磁力链资料6
GIF精品动图推荐


*不同于一般电影资源站点.akoofs AK影视发布每一部都是精选.宁缺毋滥.第一时间更新最新最完美的资讯
*本站不发布任何ek2k电驴链接.BT种子磁力链等,百度云网盘离线迅雷下载等通通木有
*本站所有资源文章由源码程序自动收集发布生成,并非代表本站观点,本站不承担任何法律责任
*如侵犯了您的权益,请邮件@通知,并提供权利产权证明,核实后会第一时间删除!谢谢您的关注
*本站挂的各种广告为广告商赞助,请尽量少点击,不代表本站观点,本站也不负任何法律责任,其真伪性自行辨别!
*喜欢本站 请按"Ctrl + D" 收藏我们哦~ 谢谢~【www.akoofs.com】AK影视 每日精彩分享