欢迎光临
我们一直在努力

[BT磁力链下载]虎女 Tiger.Girl.2017.GERMAN.WEB.1080p.x264 4.58GB

[BT磁力链下载]虎女 Tiger.Girl.2017.GERMAN.WEB.1080p.x264 4.58GB

Tiger.Girl.2017.GERMAN.1080p.AMZN.WEBRip.DDP2.0.x264-QOQ

据电影振兴委员会统计,The Walt Disney Company Korea有限公司出品的电影-虎女 Tiger.Girl.2017.GERMAN吸引了2,034万名观众观影,销售额达到1,755亿韩元。在上半年6部电影中,《虎女 Tiger.Girl.2017.GERMAN》吸引了1,120万名观众,《虎女 Tiger.Girl.2017.GERMAN》吸引540万名观众,票房排名分别占据第一位和第四位。另外,动画片《寻梦环游记》也吸引了351万名观众,位居第八。第23届釜山国际电影节将于10月4日至13日举行。9月4日,主办方公布了开、闭幕影片。

与伊森在前作中不相上下的伊尔莎则再次登场,无论是摩托车追逐还是空手搏击的动作戏都显得那么女性化地坚韧而游刃有余。此外作为与伊森不相上下的特工,可以说这两个角色的般配在上一作里已经备受追捧了吧?(另,有多少观众是觉得两位女角色其实长得挺像的?反正我是其中一个)这次麦奎里也在紧张的动作场面中不断穿插他们之间无声的交流,我甚至觉得在巴黎的追逐战中,两人对视后伊森毫不留情的撞击是一件浪漫的事……yg佩感ff中f縱礎w肺y句五、谁是Sonny Burch的幕后买家?

◎译  名 虎女/制服小虎女(港)

◎片  名 Tiger Girl

◎年  代 2017

◎产  地 德国

◎类  别 剧情/动作

◎语  言 德语/英语

◎上映日期 2017-02-10(柏林电影节)/2017-04-06(德国)

◎IMDb评分  5.9/10 from 468 users

◎IMDb链接  http://www.imdb.com/title/tt6082614/

◎片  长 90分钟

◎导  演 雅各布·拉斯 Jakob Lass

◎主  演 艾拉·朗夫 Ella Rumpf

弗兰兹·罗格沃斯基 Franz Rogowski

玛丽亚·维多利亚·德拉格斯 Maria-Victoria Dragus

◎简  介

凡妮娜是一个尚未找到自己人生目标的女孩,她只想穿上警服并享受警服带来的使命感。然而她并未通过警校考试,只好在一家私人保安公司工作。保安公司的同事虎女信奉一条人生原则——强者为王,凡是她想得到的就一定要得到。虎女对新来的凡妮娜很感兴趣,而凡妮娜正拼命想融入这个集体。在两人的相处中,虎女教会了凡妮娜如何捍卫自己,而凡妮娜也尝到了逞凶斗狠的快感。然而,无情的现实却教给虎女另一条原则:善恶终有报。

Video
ID : 1
Format : AVC
Format/Info : Advanced Video Codec
Format profile : High@L4
Format settings : CABAC / 4 Ref Frames
Format settings, CABAC : Yes
Format settings, ReFrames : 4 frames
Codec ID : V_MPEG4/ISO/AVC
Duration : 1 h 27 min
Bit rate : 7 279 kb/s
Width : 1 920 pixels
Height : 1 080 pixels
Display aspect ratio : 16:9
Frame rate mode : Constant
Frame rate : 25.000 FPS
Color space : YUV
Chroma subsampling : 4:2:0
Bit depth : 8 bits
Scan type : Progressive
Bits/(Pixel*Frame) : 0.140
Stream size : 4.44 GiB (97%)
Default : Yes
Forced : No
Color range : Limited
Color primaries : BT.709
Transfer characteristics : BT.709
Matrix coefficients : BT.709

Audio
ID : 2
Format : E-AC-3
Format/Info : Enhanced Audio Coding 3
Codec ID : A_EAC3
Duration : 1 h 27 min
Bit rate mode : Constant
Bit rate : 224 kb/s
Channel(s) : 2 channels
Channel positions : Front: L R
Sampling rate : 48.0 kHz
Frame rate : 187.500 FPS (256 SPF)
Compression mode : Lossy
Stream size : 140 MiB (3%)
Language : German
Service kind : Complete Main
Default : Yes
Forced : No

独家真实1080P bt磁力链下载

Tiger.Girl.2017.GERMAN.1080p.AMZN.WEBRip.DDP2.0.x264-QOQ[www.akoofs.com].torrent

magnet:?xt=urn:btih:7B9EF2D475130A661515B42B58C2FBFD6194EDDF

赞(0)
未经允许不得转载:i酷影讯 » [BT磁力链下载]虎女 Tiger.Girl.2017.GERMAN.WEB.1080p.x264 4.58GB
GIF精品动图推荐


*不同于一般电影资源站点.skoofs发布每一部都是精选.宁缺毋滥.第一时间更新最新最完美的资讯
*本站不发布任何ek2k电驴链接.BT种子磁力链等,百度云网盘离线迅雷下载等通通木有
*本站所有资源文章由源码程序自动收集发布生成,并非代表本站观点,本站不承担任何法律责任
*如侵犯了您的权益,请邮件@通知,并提供权利产权证明,核实后会第一时间删除!谢谢您的关注
*本站挂的各种广告为广告商赞助,请尽量少点击,不代表本站观点,本站也不负任何法律责任,其真伪性自行辨别!
*喜欢本站 请按"Ctrl + D" 收藏我们哦~ 谢谢~【www.akoofs.com】i酷影音 每日精彩分享